[REQUEST] ffmpeg version/codec

Here for general support for B series TVs, request and problem solve area.
Post Reply

arris69
Official SamyGO Developer
Posts: 1700
Joined: Fri Oct 02, 2009 8:52 am
Location: Austria/Vienna (no Kangaroos here)
Contact:

[REQUEST] ffmpeg version/codec

Post by arris69 » Tue Aug 17, 2010 11:29 am

tnx a lot, i found a release candidate
backgroung info: didn't got latest svn version staticaly linked in my app (some strange symbol versioning in latest svn)

as hint for others: if you checkout older version from ffmpeg via svn update libswscale to same dated revision!!!

hi,

can somebody pls test this file http://anon.nasa-global.edgesuite.net/q ... h_480i.mov

Code: Select all

ffmpeg -i "http://anon.nasa-global.edgesuite.net/qt.nasa-global/ksc/ksc_051410_sts132_launch_480i.mov" test.avi
and post here the version of ffmpeg -version and distro.
most important for me is to figure out since what version ffmpeg won't bring messages like

Code: Select all

[svq3 @ 0x3a5f0]unsupported slice header (84)
on this file

thnx
arris
Last edited by arris69 on Wed Aug 18, 2010 9:45 pm, edited 3 times in total.
Reason: found rc of ffmpeg

smartsmurf
Official SamyGO Developer
Posts: 111
Joined: Thu Jun 24, 2010 8:26 am
Location: Frankfurt, Germany

Re: [REQUEST] ffmpeg version/codec

Post by smartsmurf » Tue Aug 17, 2010 10:56 pm

No unsupported slices message on my LE37B650 either:

Code: Select all

# /dtv/bin/ffmpeg -i "http://anon.nasa-global.edgesuite.net/qt.nasa-global/ksc/ksc_051410_sts132_launch_480i.mov" /dtv/usb/sda4/data/test.avi
FFmpeg version SVN-r151, Copyright (c) 2000-2010 the FFmpeg developers
  built on Aug 07 2010 13:11:28 with gcc 4.2.0 20070514 (GPL2)
  configuration: --prefix=/usr/local/arm-chelsea-linux-gnueabi/ffmpeg --cross-prefix=arm-chelsea-linux-gnueabi- --enable-cross-compile --target-os=linux --arch=arm --enable-gpl --enable-version3 --enable-nonfree --extra-cflags='-mcpu=arm1176jzf-s -mfpu=vfp -mfloat-abi=softfp -ffast-math -fsingle-precision-constant' --enable-memalign-hack --disable-ffplay --disable-ffserver --disable-ffprobe --disable-armv6 --disable-armv6t2 --disable-debug --disable-doc --disable-devices
  libavutil     50.23. 0 / 50.23. 0
  libavcore      0. 1. 0 /  0. 1. 0
  libavcodec    52.84. 1 / 52.84. 1
  libavformat   52.77. 0 / 52.77. 0
  libavdevice   52. 2. 0 / 52. 2. 0
  libavfilter    1.26. 1 /  1.26. 1
  libswscale     0.11. 0 /  0.11. 0
[mov,mp4,m4a,3gp,3g2,mj2 @ 0xb2cce0] multiple edit list entries, a/v desync might occur, patch welcome
[mov,mp4,m4a,3gp,3g2,mj2 @ 0xb2cce0] max_analyze_duration reached

Seems stream 0 codec frame rate differs from container frame rate: 600.00 (600/1) -> 25.00 (25/1)
Input #0, mov,mp4,m4a,3gp,3g2,mj2, from 'http://anon.nasa-global.edgesuite.net/qt.nasa-global/ksc/ksc_051410_sts132_launch_480i.mov':
  Metadata:
    major_brand     : qt
    minor_version   : 537199360
    compatible_brands: qt
  Duration: 00:02:37.05, start: 0.000000, bitrate: 3189 kb/s
    Stream #0.0(eng): Video: svq3, yuvj420p, 854x480, 2995 kb/s, 24.99 fps, 25 tbr, 600 tbn, 600 tbc
    Stream #0.1(eng): Audio: mp3, 48000 Hz, 2 channels, s16
[buffer @ 0xb386f0] w:854 h:480 pixfmt:yuvj420p
[ffmpeg_output @ 0xb33f70] auto-inserting filter 'auto-inserted scaler 0' between the filter 'src' and the filter 'out'
[scale @ 0xb34190] w:854 h:480 fmt:yuvj420p -> w:854 h:480 fmt:yuv420p flags:0x4
Output #0, avi, to '/dtv/usb/sda4/data/test.avi':
  Metadata:
    ISFT            : Lavf52.77.0
    Stream #0.0(eng): Video: mpeg4, yuv420p, 854x480, q=2-31, 200 kb/s, 25 tbn, 25 tbc
    Stream #0.1(eng): Audio: mp2, 48000 Hz, 2 channels, s16, 64 kb/s
Stream mapping:
  Stream #0.0 -> #0.0
  Stream #0.1 -> #0.1
Press [q] to stop encoding
frame= 3923 fps=  2 q=31.0 Lsize=    7066kB time=156.96 bitrate= 368.8kbits/s dup=0 drop=1
video:5582kB audio:1227kB global headers:0kB muxing overhead 3.773483%
#


arris69
Official SamyGO Developer
Posts: 1700
Joined: Fri Oct 02, 2009 8:52 am
Location: Austria/Vienna (no Kangaroos here)
Contact:

Re: [REQUEST] ffmpeg version/codec

Post by arris69 » Wed Aug 18, 2010 7:04 am

smartsmurf wrote:No unsupported slices message on my LE37B650 either:

Code: Select all

# /dtv/bin/ffmpeg -i "http://anon.nasa-global.edgesuite.net/qt.nasa-global/ksc/ksc_051410_sts132_launch_480i.mov" /dtv/usb/sda4/data/test.avi
FFmpeg version SVN-r151, Copyright (c) 2000-2010 the FFmpeg developers
  ...

but its form 0.6 release?

arris

smartsmurf
Official SamyGO Developer
Posts: 111
Joined: Thu Jun 24, 2010 8:26 am
Location: Frankfurt, Germany

Re: [REQUEST] ffmpeg version/codec

Post by smartsmurf » Wed Aug 18, 2010 8:27 am

arris69 wrote: but its form 0.6 release?

arris
Yes, it is.

antapetr
Posts: 32
Joined: Fri Nov 13, 2009 12:52 pm
Location: Kaunas, Lithuania

Re: [REQUEST] ffmpeg version/codec

Post by antapetr » Wed Aug 18, 2010 7:48 pm

Hi,
I tested it on Windows:

Code: Select all

C:\Program Files\ffmpeg>ffmpeg -i c:\ksc_051410_sts132_launch_480i.mov test.avi
FFmpeg version 0.5, Copyright (c) 2000-2009 Fabrice Bellard, et al.
  configuration: --enable-gpl --enable-postproc --enable-swscale --enable-avfilter --enable-avfilter-lavf 
--enable-pthreads --enable-avisynth --enable-libfaac --enable-libfaad --enable-libmp3lame --enable-libspeex 
--enable-libtheora --enable-libvorbis --enable-libxvid --enable-libx264 --enable-memalign-hack
  libavutil     49.15. 0 / 49.15. 0
  libavcodec    52.20. 0 / 52.20. 0
  libavformat   52.31. 0 / 52.31. 0
  libavdevice   52. 1. 0 / 52. 1. 0
  libavfilter    0. 4. 0 /  0. 4. 0
  libswscale     0. 7. 1 /  0. 7. 1
  libpostproc   51. 2. 0 / 51. 2. 0
  built on Mar 16 2009 16:09:18, gcc: 4.2.4 [Sherpya]
[mov,mp4,m4a,3gp,3g2,mj2 @ 0x3ea790]multiple edit list entries, a/v desync might
 occur, patch welcome

Seems stream 0 codec frame rate differs from container frame rate: 150.00 (150/1) -> 25.00 (25/1)
Input #0, mov,mp4,m4a,3gp,3g2,mj2, from 'c:\ksc_051410_sts132_launch_480i.mov':
  Duration: 00:02:37.05, start: 0.000000, bitrate: 3189 kb/s
    Stream #0.0(eng): Video: svq3, yuvj420p, 854x480, 25 tbr, 150 tbn, 150 tbc
    Stream #0.1(eng): Audio: mp3, 48000 Hz, stereo, s16, 192 kb/s
Output #0, avi, to 'test.avi':
    Stream #0.0(eng): Video: mpeg4, yuv420p, 854x480, q=2-31, 200 kb/s, 90k tbn, 25 tbc
    Stream #0.1(eng): Audio: mp2, 48000 Hz, stereo, s16, 64 kb/s
Stream mapping:
  Stream #0.0 -> #0.0
  Stream #0.1 -> #0.1
Press [q] to stop encoding
frame= 3923 fps= 83 q=31.0 Lsize=    6961kB time=156.96 bitrate= 363.3kbits/s

video:5477kB audio:1227kB global headers:0kB muxing overhead 3.832289%
and

Code: Select all

C:\tools>ffmpeg.exe -i c:\ksc_051410_sts132_launch_480i.mov test.avi
FFmpeg version Sherpya-r14277, Copyright (c) 2000-2008 Fabrice Bellard, et al.
  libavutil version: 49.7.0
  libavcodec version: 51.60.0
  libavformat version: 52.17.0
  libavdevice version: 52.0.0
  built on Jul 18 2008 11:12:48, gcc: 4.2.4 [Sherpya]
FFmpeg Sherpya-r14277
libavutil   3213056
libavcodec  3357696
libavformat 3412224
libavdevice 3407872
[mov,mp4,m4a,3gp,3g2,mj2 @ 003EAEE0]edit list not starting at 0, a/v desync might occur, patch welcome

Seems stream 0 codec frame rate differs from container frame rate: 150.00 (150/1) -> 25.00 (25/1)
Input #0, mov,mp4,m4a,3gp,3g2,mj2, from 'c:\ksc_051410_sts132_launch_480i.mov':
  Duration: 00:02:37.05, start: 0.000000, bitrate: 3189 kb/s
    Stream #0.0(eng): Video: svq3, yuvj420p, 854x480, 25.00 tb(r)
    Stream #0.1(eng): Audio: mp3, 48000 Hz, stereo, 192 kb/s
Output #0, avi, to 'test.avi':
    Stream #0.0(eng): Video: mpeg4, yuv420p, 854x480, q=2-31, 200 kb/s, 25.00 tb(c)
    Stream #0.1(eng): Audio: mp2, 48000 Hz, stereo, 64 kb/s
Stream mapping:
  Stream #0.0 -> #0.0
  Stream #0.1 -> #0.1
Press [q] to stop encoding
frame= 3924 fps=116 q=31.0 Lsize=    7277kB time=156.96 bitrate= 379.8kbits/s
video:5793kB audio:1227kB global headers:0kB muxing overhead 3.660457%
no messages about unsupported slice header here.

Post Reply

Return to “[B] Support”