HowTo watch IPTV on A/B/C/D series, PS3 and so on...

Here are software that related with Samsung B series TVs. Like hex editors, new version of BusyBox or internal software, app programs that will run in your TV hardware.:!:This forum is NOT FOR USER QUESTIONS or Problems.

User avatar
juusso
SamyGO Moderator
Posts: 9485
Joined: Sun Mar 07, 2010 6:20 pm

Re: HowTo watch IPTV on A/B/C/D series, PS3 and so on...

Post by juusso » Mon Mar 26, 2012 8:44 pm

This is the question i haven`t solved. I just tried several times without success. Theoretically you have to enable local playlist in xupnpd.lua, but practically here is needed smth more.

Code: Select all

-- playlist (m3u file path or path with alias
playlist=
{
    { './playlists/mozhay.m3u',             'Mozhay.tv' },
    { './localmedia', 'Local Media Files', '127.0.0.1;192.168.1.1' }
}
I think you have to create the dir named localmedia and mount your shares there (or make some symlinks?). Dunno. Haven`t checked deeper, because i think the best way is to use NFS exports.

From example file (in playlists direcotry) you can see, you have to write links to your files (or write some script)

Code: Select all

file://./localmedia/test.mpeg 
check http://xupnpd.org for playslist examples and other related info.
LE40B653T5W,UE40D6750
Have questions? Read SamyGO Wiki, Search on forum first!
FFB (v0.8), FFB for CI+ . Get root on: C series, D series, E series, F series, H series, exeDSP/exeTV patches[C/D/E/F/H]

DO NOT EVER INSTALL FIRMWARE UPGRADE

cotarelo
Posts: 59
Joined: Sun Jan 22, 2012 12:38 am

Re: HowTo watch IPTV on A/B/C/D series, PS3 and so on...

Post by cotarelo » Wed Mar 28, 2012 8:42 pm

No worries, I realized that I can run togeter xupnpd and minidlna togeter in the same server, and TV detects 2 dlna sources, so better.

xupnpd is great... I think maybe to integrate it with some media player that transcodes and create the complete solution to stream any video or iptv via dlna (wait, should not dlna do this by default?). :geek:

By the way... I'd love to find a playlist with channels from poland (polska)
Samsung LE40C530
T-MSX5DEUC-2009.0

c74k
Posts: 104
Joined: Tue May 04, 2010 7:45 pm

Re: HowTo watch IPTV on A/B/C/D series, PS3 and so on...

Post by c74k » Tue Apr 03, 2012 1:13 am

some polish playlist ??

jakie? polskie Play Listy ??


how to add to autorun ??
jak dodada? do autostartu ??

User avatar
juusso
SamyGO Moderator
Posts: 9485
Joined: Sun Mar 07, 2010 6:20 pm

Re: HowTo watch IPTV on A/B/C/D series, PS3 and so on...

Post by juusso » Wed Apr 11, 2012 11:53 am

New version available.

Updated archive:
xupnpd-rc8_full_arm.tar.gz

Code: Select all

tar xvzf ...
EDIT: bug found. for correct usage you have to change all subdirectory permissions to 777 and edit xupnpd.lua file:

Code: Select all

cfg.tmp_path='/dtv/'
cfg.pid_file='/dtv/'..cfg.log_ident..'pid'
Binary only:
xupnpd-RC8_arm.gz
(You should renew other files to get full xupnpd up to date.)

Code: Select all

http://tsdemuxer.googlecode.com/svn/trunk/xupnpd
c74k wrote: how to add to autorun ??
jak dodada? do autostartu ??
edit your SamyGO.sh and add next row at the end:

Code: Select all

/mtd_rwarea/xupnpd-rc/xupnpd-arm
You do not have the required permissions to view the files attached to this post.
LE40B653T5W,UE40D6750
Have questions? Read SamyGO Wiki, Search on forum first!
FFB (v0.8), FFB for CI+ . Get root on: C series, D series, E series, F series, H series, exeDSP/exeTV patches[C/D/E/F/H]

DO NOT EVER INSTALL FIRMWARE UPGRADE

shadycz
Posts: 2
Joined: Sun Apr 29, 2012 5:46 am

Re: HowTo watch IPTV on A/B/C/D series, PS3 and so on...

Post by shadycz » Sun Apr 29, 2012 2:53 pm

Hello,

i need help with xupnpd on Samsung TV PS50B650 with specific video file(s).

Here is problem video file ..... http://cdn-cache5g.seznam.cz/disc1/76/5 ... cVkcJj.mp4

Media file info:

Code: Select all

General
Complete name                            : C:\Downloads\1777658-cVkcJj.mp4
Format                                   : MPEG-4
Format profile                           : Base Media / Version 2
Codec ID                                 : mp42
File size                                : 279 MiB
Duration                                 : 36mn 1s
Overall bit rate                         : 1 083 Kbps
Writing application                      : Lavf53.4.0

Video
ID                                       : 201
Format                                   : AVC
Format/Info                              : Advanced Video Codec
Format profile                           : High@L3.0
Format settings, CABAC                   : Yes
Format settings, ReFrames                : 2 frames
Codec ID                                 : avc1
Codec ID/Info                            : Advanced Video Coding
Duration                                 : 36mn 1s
Bit rate                                 : 900 Kbps
Width                                    : 720 pixels
Height                                   : 404 pixels
Display aspect ratio                     : 16:9
Original display aspect ratio            : 16:9
Frame rate mode                          : Constant
Frame rate                               : 25.000 fps
Color space                              : YUV
Chroma subsampling                       : 4:2:0
Bit depth                                : 8 bits
Scan type                                : Progressive
Bits/(Pixel*Frame)                       : 0.124
Stream size                              : 232 MiB (83%)
Writing library                          : x264 core 115
Encoding settings                        : cabac=1 / ref=2 / deblock=1:0:0 / analyse=0x3:0x113 / me=hex / subme=6 / psy=1 / psy_rd=1.00:0.00 / mixed_ref=0 / me_range=16 / chroma_me=1 / trellis=0 / 8x8dct=1 / cqm=0 / deadzone=21,11 / fast_pskip=1 / chroma_qp_offset=-2 / threads=4 / sliced_threads=0 / nr=0 / decimate=1 / interlaced=0 / bluray_compat=0 / constrained_intra=0 / bframes=3 / b_pyramid=0 / b_adapt=1 / b_bias=0 / direct=3 / weightb=1 / open_gop=0 / weightp=2 / keyint=250 / keyint_min=25 / scenecut=40 / intra_refresh=0 / rc_lookahead=40 / rc=abr / mbtree=1 / bitrate=900 / ratetol=1.0 / qcomp=0.60 / qpmin=10 / qpmax=51 / qpstep=4 / ip_ratio=1.41 / aq=1:1.00
Tagged date                              : UTC 2012-04-23 22:40:14

Audio
ID                                       : 101
Format                                   : AAC
Format/Info                              : Advanced Audio Codec
Format profile                           : LC
Codec ID                                 : 40
Duration                                 : 36mn 1s
Bit rate mode                            : Constant
Bit rate                                 : 128 Kbps
Channel(s)                               : 2 channels
Channel positions                        : Front: L R
Sampling rate                            : 44.1 KHz
Compression mode                         : Lossy
Stream size                              : 33.0 MiB (12%)
Language                                 : English
Tagged date                              : UTC 2012-04-23 22:40:14
xupnpd play list:

Code: Select all

#EXTM3U name="Test"

#EXTINF:0 type=mp4, Test video
http://cdn-cache5g.seznam.cz/disc1/76/58/1777658-cVkcJj.mp4
- On PC and Windows Media Player this working.
- TV show alert "unsupported file format".
- I try dlna_extras parameters (mp4_avc_sd_mp3, mp4_avc_sd_ac3, mp4_avc_hd_ac3, mp4_avc_sd_aac), but no help.
- If i download this file, copy to my DLNA server (on PC) - TV play video without problems.
- If copy this file to USB stick - TV play video without problems.

Any idea how to set correct file format in xupnpd playlist or other actions?
Thank you

PS: Sorry for my bad english.

c74k
Posts: 104
Joined: Tue May 04, 2010 7:45 pm

Re: HowTo watch IPTV on A/B/C/D series, PS3 and so on...

Post by c74k » Sat May 05, 2012 12:59 pm

shadycz wrote:Hello,

i need help with xupnpd on Samsung TV PS50B650 with specific video file(s).

Here is problem video file ..... http://cdn-cache5g.seznam.cz/disc1/76/5 ... cVkcJj.mp4

Media file info:

Code: Select all

General
Complete name                            : C:\Downloads\1777658-cVkcJj.mp4
Format                                   : MPEG-4
Format profile                           : Base Media / Version 2
Codec ID                                 : mp42
File size                                : 279 MiB
Duration                                 : 36mn 1s
Overall bit rate                         : 1 083 Kbps
Writing application                      : Lavf53.4.0

Video
ID                                       : 201
Format                                   : AVC
Format/Info                              : Advanced Video Codec
Format profile                           : High@L3.0
Format settings, CABAC                   : Yes
Format settings, ReFrames                : 2 frames
Codec ID                                 : avc1
Codec ID/Info                            : Advanced Video Coding
Duration                                 : 36mn 1s
Bit rate                                 : 900 Kbps
Width                                    : 720 pixels
Height                                   : 404 pixels
Display aspect ratio                     : 16:9
Original display aspect ratio            : 16:9
Frame rate mode                          : Constant
Frame rate                               : 25.000 fps
Color space                              : YUV
Chroma subsampling                       : 4:2:0
Bit depth                                : 8 bits
Scan type                                : Progressive
Bits/(Pixel*Frame)                       : 0.124
Stream size                              : 232 MiB (83%)
Writing library                          : x264 core 115
Encoding settings                        : cabac=1 / ref=2 / deblock=1:0:0 / analyse=0x3:0x113 / me=hex / subme=6 / psy=1 / psy_rd=1.00:0.00 / mixed_ref=0 / me_range=16 / chroma_me=1 / trellis=0 / 8x8dct=1 / cqm=0 / deadzone=21,11 / fast_pskip=1 / chroma_qp_offset=-2 / threads=4 / sliced_threads=0 / nr=0 / decimate=1 / interlaced=0 / bluray_compat=0 / constrained_intra=0 / bframes=3 / b_pyramid=0 / b_adapt=1 / b_bias=0 / direct=3 / weightb=1 / open_gop=0 / weightp=2 / keyint=250 / keyint_min=25 / scenecut=40 / intra_refresh=0 / rc_lookahead=40 / rc=abr / mbtree=1 / bitrate=900 / ratetol=1.0 / qcomp=0.60 / qpmin=10 / qpmax=51 / qpstep=4 / ip_ratio=1.41 / aq=1:1.00
Tagged date                              : UTC 2012-04-23 22:40:14

Audio
ID                                       : 101
Format                                   : AAC
Format/Info                              : Advanced Audio Codec
Format profile                           : LC
Codec ID                                 : 40
Duration                                 : 36mn 1s
Bit rate mode                            : Constant
Bit rate                                 : 128 Kbps
Channel(s)                               : 2 channels
Channel positions                        : Front: L R
Sampling rate                            : 44.1 KHz
Compression mode                         : Lossy
Stream size                              : 33.0 MiB (12%)
Language                                 : English
Tagged date                              : UTC 2012-04-23 22:40:14
xupnpd play list:

Code: Select all

#EXTM3U name="Test"

#EXTINF:0 type=mp4, Test video
http://cdn-cache5g.seznam.cz/disc1/76/58/1777658-cVkcJj.mp4
- On PC and Windows Media Player this working.
- TV show alert "unsupported file format".
- I try dlna_extras parameters (mp4_avc_sd_mp3, mp4_avc_sd_ac3, mp4_avc_hd_ac3, mp4_avc_sd_aac), but no help.
- If i download this file, copy to my DLNA server (on PC) - TV play video without problems.
- If copy this file to USB stick - TV play video without problems.

Any idea how to set correct file format in xupnpd playlist or other actions?
Thank you

PS: Sorry for my bad english.
i use NFS (network FILES SHARE) for recording form tv
i use Samba (for copy from nas and in second way )and ushare (for watching movies)

if samba dont read film i try ushare :P

cotarelo
Posts: 59
Joined: Sun Jan 22, 2012 12:38 am

Re: HowTo watch IPTV on A/B/C/D series, PS3 and so on...

Post by cotarelo » Mon May 28, 2012 10:15 pm

Nice looking ushare. Does it do like iptv playlist files like xupnpd? Does it also support normal video files? I'd be great if it also can play subtitles via dlna.

Still I could not hack my tv so I can't use samba or nfs.
Samsung LE40C530
T-MSX5DEUC-2009.0

gchirtoaca
Posts: 35
Joined: Wed May 05, 2010 9:31 pm
Location: Bucharest, Romania
Contact:

Re: HowTo watch IPTV on A/B/C/D series, PS3 and so on...

Post by gchirtoaca » Wed Jul 25, 2012 9:20 pm

Sorry to resurect an old thread.

I found today that xupnpd-rc9 supports adding the length parameter into m3u playlists.
I have the B653T5 model and I was hoping that this length parameter will allow duration display and pause/skipping for the streamed videos, but it does not.
Any ideea on how to enable these features from xupnpd on the B series? What headers might be needed?

Thanks!
Samsung LE37B653T5PXZG, T-CHLCIPDEUC 2008.2 firmware, Advanced Mode Patch

ozyri
Posts: 1
Joined: Mon Aug 06, 2012 11:27 am

Re: HowTo watch IPTV on A/B/C/D series, PS3 and so on...

Post by ozyri » Mon Aug 06, 2012 11:49 am

Help needed:

TV: LE32B65* cl
Firmware: 2005
arm 6

Got FTP and Telnet running with no problem, got Dnla running with no problem. Everything done letter by letter by this manual: http://wiki.samygo.tv/index.php5/How_watch_IPTV.

Problem: cannot load m3u file through web browser admin.

What have i done:
Installed everything by manual in wiki
Tried to add m3u - Failed
Added m3u into playlist folder by ftp - reload in web browser admin - Failed
Try to play included play lists - format not supported - ok i dont want them anyway
Delete included playlists by FTP in playlist folder on TV
Reload in web browser - no more playlists in Dlna
Upload own m3u playlist to TV playlist folder by FTP, reload - nothing in Dlna on TV

/mebrainworking

ok next:
Maybe deleting playlist files messed it up?
Reload full folder on TV by FTP including the playlist folder
Give rights by telnet for file access according to wiki
Launch app by telnet
Dlna is back on TV - no playlists (neither mine nor the ones i put back in FTP)
Cannot access web browser admin anymore to try to reload playlist files

/mebrainbroken

Questions:
1. Is there any extremely specific m3u file structure I might be missing here? Mine is not by IP addreses but by domain name: http://login:pswd@subdomain.domain.com:PORT/stream/channelid/1
Is this grammar allowed? Would changing it to IP address help?
2. Is there a chance, that the app checks (pings?) URL's before adding the m3u and checks if they are available (cause when i tried it the service was down). Is there any log file i could check what went wrong?
3. How to reload the playlists without the web browser admin and how to get it back on?
4. Is adding m3u by FTP wrong? Should I always do it by browser admin?
5. File format not supported - this error might "return" i believe - how do you set up file formats for the app?
6. Is there an easier way to set up autostarter in arm_6 without having the firmware http://wiki.samygo.tv/index.php5/SamyGO ... re_Patcher

I hope this thread is still alive and either juuso or moras would be able to help a TV hacker virgin ;)

cotarelo
Posts: 59
Joined: Sun Jan 22, 2012 12:38 am

Re: HowTo watch IPTV on A/B/C/D series, PS3 and so on...

Post by cotarelo » Sat Aug 11, 2012 10:35 pm

How to remove the russian playlists who are not on the playlist folder?

How to do that xupnpd does not put so much output on the command line?
Samsung LE40C530
T-MSX5DEUC-2009.0

Post Reply

Return to “[B] Software”

Who is online

Users browsing this forum: No registered users and 2 guests