Some movies can't play

General Forum for talking area for B series TVs.
Post Reply

yoco
Posts: 54
Joined: Mon Mar 01, 2010 7:14 pm

Some movies can't play

Post by yoco » Sat Sep 07, 2019 4:34 pm

Hey guys! I know this is a long shot, and that my TV is 10 years old. But I was just wondering if anyone knows why I was able to watch a first movie fine, but the second one it wouldn't load (both are on my usb key plugged in tv). The movies are released by same release group.
My TV is LE40B650

Code: Select all

General
Unique ID                      : 15529509485596953174219189266158617782 (0xBAEDFEE91302435107F54290F8E84B6)
Complete name                  
Format                         : Matroska
Format version                 : Version 4
File size                      : 8.74 GiB
Duration                       : 2 h 11 min
Overall bit rate               : 9 504 kb/s
Encoded date                   : UTC 2019-08-16 01:54:06
Writing application            : mkvmerge v22.0.0 ('At The End Of The World') 64-bit
Writing library                : libebml v1.3.5 + libmatroska v1.4.8

Video
ID                             : 1
Format                         : AVC
Format/Info                    : Advanced Video Codec
Format profile                 : High@L4.1
Format settings                : CABAC / 5 Ref Frames
Format settings, CABAC         : Yes
Format settings, Reference fra : 5 frames
Codec ID                       : V_MPEG4/ISO/AVC
Duration                       : 2 h 11 min
Bit rate                       : 8 865 kb/s
Width                          : 1 920 pixels
Height                         : 800 pixels
Display aspect ratio           : 2.40:1
Frame rate mode                : Constant
Frame rate                     : 23.976 (24000/1001) FPS
Color space                    : YUV
Chroma subsampling             : 4:2:0
Bit depth                      : 8 bits
Scan type                      : Progressive
Bits/(Pixel*Frame)             : 0.241
Stream size                    : 8.15 GiB (93%)
Writing library                : x264 core 158 r2984 3759fcb
Encoding settings              : cabac=1 / ref=5 / deblock=1:-3:-3 / analyse=0x3:0x133 / me=umh / subme=8 / psy=1 / 

psy_rd=1.00:0.00 / mixed_ref=1 / me_range=16 / chroma_me=1 / trellis=1 / 8x8dct=1 / cqm=0 / deadzone=21,11 / fast_pskip=0 

/ chroma_qp_offset=-2 / threads=25 / lookahead_threads=4 / sliced_threads=0 / nr=0 / decimate=1 / interlaced=0 / 

bluray_compat=0 / constrained_intra=0 / bframes=3 / b_pyramid=2 / b_adapt=1 / b_bias=0 / direct=3 / weightb=1 / open_gop=0 

/ weightp=2 / keyint=250 / keyint_min=23 / scenecut=40 / intra_refresh=0 / rc_lookahead=50 / rc=2pass / mbtree=1 / 

bitrate=8865 / ratetol=1.0 / qcomp=0.60 / qpmin=0 / qpmax=69 / qpstep=4 / cplxblur=20.0 / qblur=0.5 / vbv_maxrate=62500 / 

vbv_bufsize=78125 / nal_hrd=none / filler=0 / ip_ratio=1.40 / aq=1:1.00
Default                        : Yes
Forced                         : No

Audio
ID                             : 2
Format                         : AC-3
Format/Info                    : Audio Coding 3
Commercial name                : Dolby Digital
Codec ID                       : A_AC3
Duration                       : 2 h 11 min
Bit rate mode                  : Constant
Bit rate                       : 640 kb/s
Channel(s)                     : 6 channels
Channel layout                 : L R C LFE Ls Rs
Sampling rate                  : 48.0 kHz
Frame rate                     : 31.250 FPS (1536 SPF)
Bit depth                      : 16 bits
Compression mode               : Lossy
Stream size                    : 603 MiB (7%)
Language                       : English
Service kind                   : Complete Main
Default                        : Yes
Forced                         : No

Menu
00:00:00.000                   : en:00:00:00.000
00:10:53.903                   : en:00:10:53.903
00:18:06.836                   : en:00:18:06.836
00:30:27.325                   : en:00:30:27.325
00:45:18.633                   : en:00:45:18.633
00:54:11.039                   : en:00:54:11.039
01:05:41.646                   : en:01:05:41.646
01:09:31.584                   : en:01:09:31.584
01:19:31.308                   : en:01:19:31.308
01:30:06.234                   : en:01:30:06.234
01:38:36.869                   : en:01:38:36.869
01:49:58.884                   : en:01:49:58.884
01:59:28.828                   : en:01:59:28.828

Code: Select all

General
Unique ID                      : 224228677229246835085827229330807470134 (0xA8B0DF54BAAB867D87BE70F4C0A43836)
Complete name                  : 
Format                         : Matroska
Format version                 : Version 4
File size                      : 7.94 GiB
Duration                       : 2 h 10 min
Overall bit rate               : 8 689 kb/s
Encoded date                   : UTC 2019-09-04 15:02:59
Writing application            : mkvmerge v37.0.0 ('Leave It') 64-bit
Writing library                : libebml v1.3.9 + libmatroska v1.5.2

Video
ID                             : 1
Format                         : AVC
Format/Info                    : Advanced Video Codec
Format profile                 : High@L4.1
Format settings                : CABAC / 5 Ref Frames
Format settings, CABAC         : Yes
Format settings, Reference fra : 5 frames
Codec ID                       : V_MPEG4/ISO/AVC
Duration                       : 2 h 10 min
Bit rate                       : 8 049 kb/s
Width                          : 1 920 pixels
Height                         : 800 pixels
Display aspect ratio           : 2.40:1
Frame rate mode                : Constant
Frame rate                     : 23.976 (24000/1001) FPS
Color space                    : YUV
Chroma subsampling             : 4:2:0
Bit depth                      : 8 bits
Scan type                      : Progressive
Bits/(Pixel*Frame)             : 0.219
Stream size                    : 7.35 GiB (93%)
Writing library                : x264 core 157 r2969 d4099dd
Encoding settings              : cabac=1 / ref=5 / deblock=1:-3:-3 / analyse=0x3:0x113 / me=umh / subme=8 / psy=1 / 

psy_rd=1.00:0.25 / mixed_ref=1 / me_range=24 / chroma_me=1 / trellis=1 / 8x8dct=1 / cqm=0 / deadzone=21,11 / fast_pskip=1 

/ chroma_qp_offset=-4 / threads=25 / lookahead_threads=4 / sliced_threads=0 / nr=0 / decimate=1 / interlaced=0 / 

bluray_compat=0 / constrained_intra=0 / bframes=3 / b_pyramid=2 / b_adapt=1 / b_bias=0 / direct=3 / weightb=1 / open_gop=0 

/ weightp=2 / keyint=240 / keyint_min=24 / scenecut=40 / intra_refresh=0 / rc_lookahead=50 / rc=2pass / mbtree=1 / 

bitrate=8049 / ratetol=1.0 / qcomp=0.60 / qpmin=0 / qpmax=69 / qpstep=4 / cplxblur=20.0 / qblur=0.5 / ip_ratio=1.40 / 

aq=1:0.75
Default                        : Yes
Forced                         : No

Audio
ID                             : 2
Format                         : AC-3
Format/Info                    : Audio Coding 3
Commercial name                : Dolby Digital
Codec ID                       : A_AC3
Duration                       : 2 h 10 min
Bit rate mode                  : Constant
Bit rate                       : 640 kb/s
Channel(s)                     : 6 channels
Channel layout                 : L R C LFE Ls Rs
Sampling rate                  : 48.0 kHz
Frame rate                     : 31.250 FPS (1536 SPF)
Bit depth                      : 16 bits
Compression mode               : Lossy
Stream size                    : 599 MiB (7%)
Language                       : English
Service kind                   : Complete Main
Default                        : Yes
Forced                         : No

Menu
00:00:00.000                   : en:Chapter 01
00:08:46.860                   : en:Chapter 02
00:14:06.763                   : en:Chapter 03
00:22:40.401                   : en:Chapter 04
00:31:26.301                   : en:Chapter 05
00:37:51.311                   : en:Chapter 06
00:47:43.319                   : en:Chapter 07
00:57:09.176                   : en:Chapter 08
01:02:56.439                   : en:Chapter 09
01:14:27.671                   : en:Chapter 10
01:20:36.665                   : en:Chapter 11
01:28:48.365                   : en:Chapter 12
01:33:51.793                   : en:Chapter 13
01:41:31.794                   : en:Chapter 14
01:53:44.651                   : en:Chapter 15
01:59:51.434                   : en:Chapter 16


Post Reply

Return to “[B] General”